Amo Filmes / Drama / Baixar Filme Lição de Vida Dual Audio
imh

Baixar Filme Lição de Vida Dual Audio

Baixar Filme Lição de Vida Dual Audio
Título Original: Camp
Gênero: Drama
Tempo de Duração: 108 min
Ano de Lançamento: 2015
Qualidade: DVDRip
Formato: AVI
Áudio: Português / Inglês
Legenda: Incluso no rar
Qualidade de Audio: 10
Qualidade de Vídeo: 10
Tamanho: 950 MB

BAIXAR AVI DUAL AUDIO + LEGENDA

Uploaded UploadRocket Uptobox GDrive MinhaTeca

Sinopse: A vida de Eli (Miles Elliot) é um pesadelo. Com uma mãe negligente devido ao vício das drogas e um pai ausente, Eli é marcado por profundas mágoas. Ao completar dez anos, após ser agredido pelo pai embriagado, o garoto é levado para o hospital por policiais. O que ele mais desejava era o amor e a aprovação de seus pais, porém, depois do ocorrido, Eli é retirado de sua casa e enviado para um orfanato. Nada tão ruim comparado à única referência que possui de lar.

Baixe sem limites comprando uma conta no SuperCombo

Baixar Filme Lição de Vida Dual Audio Grátis Completo


Fbai

Baixar Filme Lição de Vida Dual Audio download grátis completo

2 comentários

  1. O filme está em ingles e não em portugues como fala a legenda

    • Só trocar o áudio, possui 2.

      ########################################
      Audio #1
      ID : 1
      Format : MPEG Audio
      Format version : Version 1
      Format profile : Layer 3
      Mode : Joint stereo
      Mode extension : MS Stereo
      Codec ID : 55
      Codec ID/Hint : MP3
      Duration : 1h 49mn
      Bit rate mode : Constant
      Bit rate : 192 Kbps
      Channel count : 2 channels
      Sampling rate : 48.0 KHz
      Compression mode : Lossy
      Stream size : 150 MiB (16%)
      Alignment : Aligned on interleaves
      Interleave, duration : 42 ms (1.00 video frame)
      Interleave, preload duration : 504 ms
      Writing library : LAME3.98.4

      Audio #2
      ID : 2
      Format : MPEG Audio
      Format version : Version 1
      Format profile : Layer 3
      Mode : Joint stereo
      Mode extension : MS Stereo
      Codec ID : 55
      Codec ID/Hint : MP3
      Duration : 1h 49mn
      Bit rate mode : Constant
      Bit rate : 192 Kbps
      Channel count : 2 channels
      Sampling rate : 48.0 KHz
      Compression mode : Lossy
      Stream size : 150 MiB (16%)
      Alignment : Aligned on interleaves
      Interleave, duration : 42 ms (1.00 video frame)
      Interleave, preload duration : 504 ms
      Writing library : LAME3.98.4
      ########################################

Responder

Seu e-mail não será publicado. Campos obrigatórios estão marcados com *

*

Scroll To Top